extratorrent - A Fan Made Alternative Login   |   Register
Important Information
Registrations are open now
-------------------------------------

Please click here to register with Extratorrent2 to recieve latest updates, add bookmarks and to post comments.

Friends
Friends

1) ProxyFix

Extratorrent2 > Categories > Movies > Knuckleball.2018.HDRip.XviD.AC3.LLG torrent


Browse Movies torrents

Knuckleball.2018.HDRip.XviD.AC3.LLG torrent


Download torrent: Download Knuckleball.2018.HDRip.XviD.AC3.LLG torrent Magnet link Bookmark Torrent: Knuckleball.2018.HDRip.XviD.AC3.LLG   Knuckleball.2018.HDRip.XviD.AC3.LLG torrent
Info hash: 7DD4934094C001FB179FC75E25F1519AC3B013B2
Category: Categories > Movies
Trackers:
View all torrent trackers >
Health:
 seeds: 3 ,  leechers: 1 |  Update >
Torrent language: English English
Total Size: 929.8 MB
Files List:
2    View torrent files >
Uploader:
LifeLongg
Torrent added: November 19, 2018, 4:30 pm
Tags: Knuckleball, 2018, HDRip, , Thriller
Users rating: ---, not rated. please login to rate.

Download Knuckleball.2018.HDRip.XviD.AC3.LLG torrent



Torrent Description



******************************Thumbnail:**********************



******************************Screenshots:********************

Screenshot 1

Screenshot 2

Screenshot 3

Screenshot 4

Screenshot 5

Screenshot 6

Screenshot 7

Screenshot 8

Screenshot 9

Screenshot 0

************************************************************

Knuckleball.2018.HDRip.XviD.AC3.LLG.mp4
Format : MPEG-4
Format profile : Base Media
Codec ID : isom (isom/iso2/avc1/mp41)
File size : 923 MiB
Duration : 1 h 28 min
Overall bit rate : 1 455 kb/s
Writing application : Lavf57.56.101

Video
ID : 1
Format : AVC
Format/Info : Advanced Video Codec
Format profile :
Format settings : CABAC / 4 Ref Frames
Format settings, CABAC : Yes
Format settings, RefFrames : 4 frames
Codec ID : avc1
Codec ID/Info : Advanced Video Coding
Duration : 1 h 28 min
Bit rate : 1 200 kb/s
Width : 720 pixels
Height : 288 pixels
Display aspect ratio : 2.500
Frame rate mode : Constant
Frame rate : 23.976 (23976/1000) FPS
Color space : YUV
Chroma subsampling : 4:2:0
Bit depth : 8 bits
Scan type : Progressive
Bits/(Pixel*Frame) : 0.241
Stream size : 758 MiB (82%)


Audio
ID : 2
Format : AC-3
Format/Info : Audio Coding 3
Commercial name : Dolby Digital
Codec ID : ac-3
Duration : 1 h 28 min
Bit rate mode : Constant
Bit rate : 256 kb/s
Channel(s) : 6 channels
Channel layout : L R C LFE Ls Rs
Sampling rate : 48.0 kHz
Frame rate : 31.250 FPS (1536 SPF)
Bit depth : 16 bits
Compression mode : Lossy
Stream size : 162 MiB (18%)
Service kind : Complete Main
Default : Yes
Alternate group : 1


********************************************************


Download Knuckleball.2018.HDRip.XviD.AC3.LLG torrent


Related Torrents


Comments   (please login to add your comment!)

freak     jodi taylor evilangel     constantine 2005 hindi     2018 dts     home for     romantic s     ana     shannon noll     5 star     kissa     team jaffa     max     don     office girls     red     adria rae xxx     18 year     1080     x264 fgt     mobile     boob     the school     s01e10     birth     


Home - Browse Torrents

Made with love by an Extratorrent Fan!